#TITLE:Super Driver;
#SUBTITLE:;
#ARTIST:Daniel;
#TITLETRANSLIT:;
#SUBTITLETRANSLIT:;
#ARTISTTRANSLIT:;
#GENRE:;
#CREDIT:;
#BANNER:221.jpg;
#BACKGROUND:;
#LYRICSPATH:;
#CDTITLE:221.jpg;
#MUSIC:driver.mp3;
#OFFSET:-0.778;
#SAMPLESTART:48.340;
#SAMPLELENGTH:12.000;
#SELECTABLE:YES;
#BPMS:0.000=160.000,23.000=40.000,24.000=160.000;
#STOPS:11.000=1.500
;
#DELAYS:;
#TIMESIGNATURES:0.000=4=4
;
#BGCHANGES:;
#KEYSOUNDS:;
#ATTACKS:;
// cache tags:
#FIRSTBEAT:25.000;
#LASTBEAT:214.667;
#SONGFILENAME:/Songs/ParaPara/Super Driver/Super Driver.sm;
#HASMUSIC:1;
#HASBANNER:1;
#MUSICLENGTH:95.320;
// end cache tags

//---------------para-single - Blank----------------
#NOTES:
     para-single:
     Blank:
     Beginner:
     1:
     0.258,0.282,0.115,0.147,0.105,147.000,11.000,14.000,0.000,0.000,0.000,0.000,-1.000,-1.000,0.258,0.282,0.115,0.147,0.105,147.000,11.000,14.000,0.000,0.000,0.000,0.000,-1.000,-1.000:
00000
00000
00000
00000
,
00000
00000
00000
00000
,
00000
00000
00000
00000
,
00000
00000
00000
00000
,
00000
00000
00000
00000
,
00000
00000
00000
00000
,
00000
10001
00000
00000
,
00000
10001
00000
00000
,
00010
00100
01000
00000
,
01000
00100
00010
00000
00000
00000
00010
00100
01000
00000
00000
00000
,
00000
10001
00000
00000
,
00000
10001
00000
00000
,
00010
00100
01000
00000
,
01000
00100
00010
00000
00000
00000
00010
00100
01000
00000
00000
00000
,
00010
00010
01000
01000
,
01000
00100
00020
00030
,
01000
01000
00010
00010
,
00010
00100
02000
03000
,
00010
00010
01000
01000
,
01000
00100
00020
00030
,
01000
01000
00010
00010
,
00010
00100
02000
03000
,
01000
00000
00100
00000
00010
00000
00001
00000
00000
00000
00000
00000
,
01000
00010
01000
00010
,
00010
00000
00100
00000
01000
00000
10000
00000
00000
00000
00000
00000
,
00010
01000
00010
01000
,
01000
00100
00010
00000
,
00010
00100
01000
00000
,
01000
00100
00010
00000
00010
00100
01000
00000
,
00000
02020
03030
00000
,
00010
01000
00010
01000
,
00010
01000
00010
01000
,
01000
00100
00010
00001
,
00010
00100
01000
00100
,
00010
01000
00020
00030
,
01000
00010
02000
03000
,
00000
00000
00000
02020
00000
03030
00000
00000
,
01010
00000
00000
00000
,
00010
01000
00010
01000
,
00010
01000
00010
01000
,
01000
00100
00010
00001
,
00010
00100
01000
00100
,
00010
01000
00020
00030
,
01000
00010
02000
03000
,
00000
00000
00000
02020
00000
03030
00000
00000
,
01010
00000
00000
00000
,
00000
00000
00000
00000
,
00000
00000
00000
00000
,
00010
00100
01000
00000
,
01000
00100
00010
00000
00000
00000
00010
00100
01000
00000
00000
00000
,
00000
10001
00000
00000
,
00000
10001
00000
00000
,
00010
00100
01000
00000
,
01000
00100
00010
00000
00000
00000
00010
00100
01000
00000
00000
00000
;

//---------------para-single - BPM Gimmicks----------------
#NOTES:
     para-single:
     BPM Gimmicks:
     Edit:
     1:
     0.013,0.008,0.000,0.000,0.000,9.000,0.000,0.000,0.000,0.000,0.000,0.000,-1.000,-1.000,0.013,0.008,0.000,0.000,0.000,9.000,0.000,0.000,0.000,0.000,0.000,0.000,-1.000,-1.000:
10000
10000
10000
10000
,
10000
10000
10000
10000
,
10000
00000
00000
00000
;
